#TITLE:Dragon Knight;
#SUBTITLE:Initiate;
#ARTIST:Jay Chou;
#TITLETRANSLIT:;
#SUBTITLETRANSLIT:;
#ARTISTTRANSLIT:;
#CREDIT:;
#BANNER:lzqs-bn.jpg;
#BACKGROUND:;
#LYRICSPATH:;
#CDTITLE:cdtitle.png;
#MUSIC:jay.ogg;
#OFFSET:0.000;
#SAMPLESTART:100.000;
#SAMPLELENGTH:12.000;
#SELECTABLE:YES;
#DISPLAYBPM:116.000;
#BPMS:0.000=160.000,80.000=232.000,88.000=116.000,252.000=58.000,260.000=116.000,276.000=116.000;
#STOPS:288.000=0.020
,288.250=0.020
,288.500=0.020
,296.500=0.020
,297.000=0.020
,297.500=0.020
,298.000=0.040
,298.500=0.020
,299.000=0.020
;
#BGCHANGES:;
// cache tags:
#FIRSTBEAT:0.000;
#LASTBEAT:368.500;
#SONGFILENAME:Songs/Initiate/dragonknight/jay.sm;
#HASMUSIC:1;
#HASBANNER:1;
#MUSICLENGTH:185.025;
// end cache tags

//---------------dance-single - ----------------
#NOTES:
     dance-single:
     :
     Hard:
     9:
     0.795,0.946,1.000,0.427,0.457,717.000,228.000,79.000,0.000,82.000:
0002
0000
0000
0000
,
0000
0000
0000
0000
,
1013
0010
0010
0010
1010
1000
1000
1000
,
1010
0100
1000
0100
0110
0001
0010
0100
,
0011
0001
0001
0001
1001
1000
1000
1000
,
1010
0000
0100
0000
1000
0000
0100
0000
0011
1000
0100
0001
0010
1000
0100
0001
,
0110
0010
0010
0010
1010
1000
1000
1000
,
1001
0001
0001
0001
1001
1000
1000
1000
,
1100
0100
0100
0100
0110
1010
1010
1010
,
0011
0001
0001
0001
0011
0010
0010
0010
,
1012
1000
1000
1000
1100
0100
0100
0100
,
0113
0010
0010
0010
0011
0001
0001
0001
,
0011
0010
0010
0010
0110
0100
0100
0100
,
1100
0000
1000
0000
1000
0000
1000
0000
1100
0001
0010
1000
0100
0001
0010
1000
,
0101
0001
0001
0001
0101
0100
0100
0100
,
0101
0001
0001
0001
1001
1000
1000
1000
,
1010
0010
0010
0010
0110
0100
0100
0100
,
0110
0000
0110
0000
0110
0000
0110
0000
0110
1000
0100
0001
0010
1000
0100
0001
,
2000
0000
0000
0000
,
0200
0000
0000
0000
,
3301
0010
0001
0010
0001
0010
0001
0010
,
0001
0100
1000
0100
1000
0100
1000
0100
,
1002
0100
1013
0100
0011
0100
1001
0010
,
0012
1000
0113
1000
0001
0010
0110
0001
,
1020
0001
1031
0010
0100
1000
0011
0010
,
1200
0000
0001
0000
1310
0000
0001
0000
1000
0100
0010
0001
0110
1000
0100
0010
,
2001
0001
3110
1000
0010
0010
0011
1000
,
0120
0001
1130
0001
0010
1000
0101
0010
,
1002
0100
1013
0001
0100
0010
0101
1000
,
2010
0000
3002
0000
0213
0000
0001
0000
2310
0001
0010
0100
3012
0100
0010
1000
,
0113
0000
0010
0000
0000
0001
0010
1000
0110
0001
0010
0200
0000
0000
0310
0000
,
1000
0100
0001
0010
1000
0100
0001
0010
1100
0000
0110
0000
0011
0000
0000
0000
,
0110
0000
0011
0000
1000
0100
0001
0010
1000
0100
0001
0010
0110
0000
0110
0000
,
0100
1000
0010
0001
0100
1000
0010
0001
0110
0000
1001
0000
1001
0000
0010
0000
,
1010
0000
0001
0100
1000
0010
0001
0100
1000
0010
0001
0100
1001
0000
0110
0000
,
1001
0010
1000
0100
0001
0010
1000
0100
0001
0010
1000
0100
1001
0000
0110
0000
,
0110
0001
0100
1000
0010
0001
0100
1000
0011
0000
0110
0000
1100
0000
0010
0000
,
1001
0010
1000
0001
0100
0010
1000
0001
0100
0010
1000
0010
0001
0010
0100
1000
,
0021
0000
0000
0000
1130
1000
1100
0100
,
0001
0000
0010
0000
0110
0000
1000
0000
0010
0001
0100
1000
0011
0000
1000
0000
,
0120
0000
1000
0000
0101
1000
0100
0001
1030
0000
0001
0000
0110
0000
1000
0000
,
0012
0010
0100
0010
0100
1000
0010
0100
1000
0010
1000
0010
0100
1000
0010
0100
,
2003
3200
0320
0032
1003
0100
0011
0010
,
0002
0023
0230
2300
3001
0010
1100
0001
,
0112
0000
1010
0000
0000
0100
1010
0000
,
0203
0000
0000
0000
1001
0000
0000
0000
1302
1000
0100
0010
0113
1000
0001
0010
,
1102
0010
1100
0010
1000
0010
0110
1000
,
1213
0001
1010
0010
1000
0010
1001
0010
,
1312
0100
1010
0100
0010
0100
1010
0200
,
1013
0000
0321
0000
1100
0000
0231
0000
1000
0010
2301
0010
0101
0010
3201
1000
,
0011
0010
1001
0301
0011
1000
1001
0021
,
1001
2130
0101
3021
0100
2031
0110
3012
,
1100
0000
1000
0000
1000
1000
1000
0003
,
1100
0000
0110
0000
0011
0000
1002
0000
0010
1000
0100
0000
0110
1000
0123
1000
,
0101
1000
0101
0031
0110
0100
1100
0010
,
0011
0110
1100
0201
0010
1302
0110
1203
,
1010
0001
0011
0310
0200
0010
0321
1000
,
2131
0000
0001
0000
3120
0000
1000
0000
0130
0010
0001
0010
0101
1000
0120
1000
,
0101
0100
1100
0031
0020
0100
2030
0100
,
3021
1000
1100
0132
0010
0203
1000
0320
,
1001
0001
1100
0100
0001
0130
0011
0000
,
0101
0000
0000
0000
0000
0000
0000
0000
0010
0000
0000
0000
0001
0000
0000
0000
0000
0000
0000
0000
1100
0000
0000
0000
0000
0000
0000
0000
0002
0000
0010
0100
,
1000
0000
0000
0000
0000
0000
0000
0000
0000
0000
0000
0000
0000
0000
0000
0000
0000
0000
0000
0000
0000
0000
0000
0000
0000
0000
0000
0000
1000
0000
0100
0000
0010
0000
0000
0000
0000
0000
0000
0000
0000
0000
0000
0000
0000
0000
0000
0000
0000
0000
0000
0000
0000
0000
0000
0000
0003
0000
0000
0000
0000
0000
0010
0100
,
1001
0000
0000
0000
0000
0000
0000
0000
0000
0000
0000
0000
0000
0000
0100
0010
1001
0000
0000
0000
0000
0000
0000
0000
0000
0000
0000
0000
0000
0000
1000
0100
0011
0000
0000
0000
0000
0000
0000
0000
0000
0000
0000
0000
0000
0000
0001
0010
1100
0000
0000
0000
0000
0000
0000
0000
0000
0000
0000
0000
0000
0000
1000
0010
,
0101
0000
0000
0000
0000
0000
0000
0000
0000
0000
0000
0000
0000
0000
0001
0100
1010
0000
0000
0000
0000
0000
0000
0000
0000
0000
0000
0000
0000
0000
0100
0010
1001
0000
0000
0000
0000
0000
0000
0000
0000
0000
0000
0000
0000
0000
0010
0100
1001
0000
0000
0000
0000
0000
0000
0000
0000
0000
0000
0000
0000
0000
0001
0010
,
1100
0000
0000
0000
0000
0000
0000
0000
0000
0000
0000
0000
0000
0000
1000
0100
0011
0000
0000
0000
0000
0000
0000
0000
0000
0000
0000
0000
0000
0000
0001
0100
,
1010
0000
0100
0000
1000
0000
0100
0000
1000
0000
0100
0000
1000
0000
0100
0010
1001
0000
1000
0000
1000
0000
1000
0000
1000
0000
1000
0000
1000
0000
0100
0000
,
1000
0100
0010
0001
0010
0100
1000
0100
0010
0001
0010
0100
1000
0100
0010
0001
,
0100
0000
0000
1010
0000
0000
0000
1010
0000
0000
0000
0000
0000
0000
0000
0011
0000
0000
0000
0010
0000
0000
0000
1100
0000
0000
0000
0001
0000
0000
0000
1010
,
0000
0000
0000
0100
0000
0000
0000
1100
0000
0000
0000
0001
0000
0000
0000
0110
0000
0000
0000
0001
0000
0000
0000
0011
0000
0000
0000
0100
0000
0000
0000
1010
,
0000
0000
0000
0000
0000
0000
0000
0101
0000
0000
0000
0000
0000
0000
0000
1100
0000
0000
0000
0110
0000
0000
0000
0011
0000
0000
0000
0110
0000
0000
0000
1100
,
0000
0000
0000
0011
0000
0000
0000
0110
0000
0000
0000
1100
0000
0000
0000
0011
0000
0000
0000
0101
0000
0000
0000
1010
0000
0000
0000
0110
0000
0000
0000
0022
,
0000
0000
0000
1100
0033
0000
0000
1100
0000
0000
0000
0110
0000
0000
0000
0022
,
0000
0000
0000
0000
0000
1133
0000
0000
0000
0002
0000
0000
0000
0023
0000
0000
,
0000
0000
0000
0000
0000
0000
0000
0000
0000
0000
0000
0000
0000
0030
1100
0000
,
0000
0010
0002
0000
0023
0000
0230
1001
,
0010
1010
0301
1000
0100
0011
0010
0200
,
1000
1001
0010
1300
0100
0011
0010
0002
,
1000
0110
0010
0103
1000
0011
1000
0020
,
0100
0000
1001
0000
1000
0000
0130
1000
0001
0100
1010
0100
0001
0010
1002
0000
,
0010
0110
1000
0110
1000
1013
0100
0002
,
0100
1010
0010
0103
0010
0011
0100
1002
,
0100
1010
0010
0103
1000
1100
0001
0200
,
1000
0011
1000
0310
0001
0011
0010
0200
,
0000
0000
0000
0000
,
0000
0000
0000
0000
,
0000
0000
0000
0000
,
0000
0000
0000
0000
,
0000
0002
0000
0000
0000
0000
0000
0000
,
0000
0000
0000
0000
,
0000
0000
0000
0000
,
0000
0000
0000
0000
,
0000
0303
0000
0000
0000
0000
0000
0000
;
